Go Back   Free Porn & Adult Videos Forum > Pornstars/Adult and Teen Models (PATM) > PATM High Definition Videos

Follow Planet Suzy Forum on Twitter
Best Porn Sites FAQ Mark Forums Read
Notices

PATM High Definition Videos HD videos (minimum 1280 x 720).
Arranged by actress/model.

 
 
Thread Tools
Old 15th May 2011, 14:24  
Postaholic

Postaholic
 
Join Date: May 2010
Posts: 6,435
Thanks: 5
Thanked 13,589 Times in 4,102 Posts
JeckVilkins Is a GodJeckVilkins Is a GodJeckVilkins Is a GodJeckVilkins Is a GodJeckVilkins Is a GodJeckVilkins Is a GodJeckVilkins Is a GodJeckVilkins Is a GodJeckVilkins Is a GodJeckVilkins Is a GodJeckVilkins Is a God
Default

Thread cleaned October 2019 by liquorslit

-----------------------------------------------



Carmen Hayes


- IAFD INFO -
Last edited by liquorslit; 5th October 2019 at 09:15.
JeckVilkins is offline  
The Following 13 Users Say Thank You to JeckVilkins For This Useful Post:

Old 3rd July 2012, 18:11  
Postaholic

Beyond Redemption
 
UKRoMEN's Avatar
 
Join Date: Nov 2009
Posts: 42,218
Thanks: 4,009
Thanked 355,065 Times in 42,049 Posts
UKRoMEN Is a GodUKRoMEN Is a GodUKRoMEN Is a GodUKRoMEN Is a GodUKRoMEN Is a GodUKRoMEN Is a GodUKRoMEN Is a GodUKRoMEN Is a GodUKRoMEN Is a GodUKRoMEN Is a GodUKRoMEN Is a God
Default

Carmen Hayes - Big Black Racks 3, Scene 2




Size: 973 Mb
Time: 00:33:13
Video: MPEG4 Video (H264) 1280x720 29.97fps 4000kbps
Audio: AAC 44100Hz stereo 96 kbps
Download depositfiles.com
UKRoMEN is offline  
The Following 14 Users Say Thank You to UKRoMEN For This Useful Post:
Old 25th November 2012, 19:25  
Postaholic

Postaholic
 
korolewna's Avatar
 
Join Date: Jan 2009
Location: Canada
Posts: 5,895
Thanks: 429
Thanked 95,307 Times in 5,759 Posts
korolewna Is a Godkorolewna Is a Godkorolewna Is a Godkorolewna Is a Godkorolewna Is a Godkorolewna Is a Godkorolewna Is a Godkorolewna Is a Godkorolewna Is a Godkorolewna Is a Godkorolewna Is a God
Default

Carmen Hayes - Poolside Cock (11/25/2012)
473 mb mp4 1280x720 21:06 min



http://depositfiles.com/files/4bza9y9h6
Dead Link Removed
Last edited by liquorslit; 5th October 2019 at 09:14.
korolewna is offline  
Old 25th October 2013, 10:39  

Addicted
 
Join Date: Aug 2013
Posts: 207
Thanks: 29
Thanked 896 Times in 183 Posts
userjog222 Is Damn Gooduserjog222 Is Damn Gooduserjog222 Is Damn Gooduserjog222 Is Damn Gooduserjog222 Is Damn Gooduserjog222 Is Damn Gooduserjog222 Is Damn Gooduserjog222 Is Damn Gooduserjog222 Is Damn Gooduserjog222 Is Damn Gooduserjog222 Is Damn Good
Angry

Carmen Hayes - ВяowиВǖnиiзs - Carmen & Her Luscious Chocolate Tits!



Download:
http://depositfiles.com/files/z0709pl19

Media Info:

Format : MPEG-4
Format profile : Base Media
Codec ID : isom
File size : 800 MiB
Duration : 30mn 25s
Overall bit rate mode : Variable
Overall bit rate : 3 676 Kbps
Writing application : Lavf52.31.0

Video
ID : 1
Format : AVC
Format/Info : Advanced Video Codec
Format profile : [email protected]
Format settings, CABAC : Yes
Format settings, ReFrames : 4 frames
Codec ID : avc1
Codec ID/Info : Advanced Video Coding
Duration : 30mn 25s
Bit rate : 3 596 Kbps
Nominal bit rate : 3 000 Kbps
Width : 1 280 pixels
Height : 720 pixels
Display aspect ratio : 16:9
Frame rate mode : Constant
Frame rate : 29.970 fps
Original frame rate : 25.000 fps
Color space : YUV
Chroma subsampling : 4:2:0
Bit depth : 8 bits
Scan type : Progressive
Bits/(Pixel*Frame) : 0.130
Stream size : 782 MiB (98%)
Writing library : x264 core 67 r1148 400740b
Encoding settings : cabac=1 / ref=4 / deblock=1:0:0 / analyse=0x3:0x133 / me=hex / subme=7 / psy_rd=1.0:0.0 / mixed_ref=1 / me_range=16 / chroma_me=1 / trellis=1 / 8x8dct=1 / cqm=0 / deadzone=21,11 / chroma_qp_offset=-2 / threads=12 / nr=0 / decimate=1 / mbaff=0 / bframes=3 / b_pyramid=1 / b_adapt=1 / b_bias=0 / direct=2 / wpredb=1 / keyint=60 / keyint_min=1 / scenecut=1 / rc=2pass / bitrate=3000 / ratetol=1.3 / qcomp=0.50 / qpmin=10 / qpmax=51 / qpstep=4 / cplxblur=20.0 / qblur=0.5 / ip_ratio=1.41 / pb_ratio=1.25 / aq=1:1.00
Language : English

Audio
ID : 2
Format : AAC
Format/Info : Advanced Audio Codec
Format profile : LC
Codec ID : 40
Duration : 30mn 25s
Bit rate mode : Variable
Bit rate : 73.5 Kbps
Channel(s) : 2 channels
Channel positions : Front: L R
Sampling rate : 44.1 KHz
Compression mode : Lossy
Delay relative to video : 67ms
Stream size : 16.0 MiB (2%)
Language : English

Checksum:

MD5: c59afb46927a50110dee936610c16b26
SHA-1: 4d54adbfcc04525ec1f1fa0d433da0574433bd2b
userjog222 is offline  
The Following 9 Users Say Thank You to userjog222 For This Useful Post:
Old 17th July 2018, 20:15  
I Got Banned

Clinically Insane
 
Join Date: May 2018
Posts: 3,223
Thanks: 1
Thanked 10,286 Times in 2,368 Posts
trapizo Is a Godtrapizo Is a Godtrapizo Is a Godtrapizo Is a Godtrapizo Is a Godtrapizo Is a Godtrapizo Is a Godtrapizo Is a Godtrapizo Is a Godtrapizo Is a Godtrapizo Is a God
Default

Carmen Hayes - Carmen Hayes Laps You Up




Video: 900 MB 15 min 29 s mp4 8 000 kb/s 1920x1080

Download:

Filehost 1 :
http://rapidgator.net/file/30d6529ae...ou_Up.rar.html

Filehost 2 ::
http://dfiles.eu/files/ydmy88rxn
trapizo is offline  
The Following 5 Users Say Thank You to trapizo For This Useful Post:
Old 7th November 2019, 17:16  

Forum Lord
 
kanibali's Avatar
 
Join Date: Jul 2019
Posts: 1,855
Thanks: 0
Thanked 5,372 Times in 1,331 Posts
kanibali Is a Godkanibali Is a Godkanibali Is a Godkanibali Is a Godkanibali Is a Godkanibali Is a Godkanibali Is a Godkanibali Is a Godkanibali Is a Godkanibali Is a Godkanibali Is a God
Default

In A Titty Daze!!! Carmen Hayes - Carmen Hayes



VIDEO DETAILS:
1280x720 / 00:32:13 / 847.31 MB / mp4
AVC / 3596 Kbps / 8 bits / YUV / AVC / 16:9


AUDIO DETAILS:
74 Kbps / AAC LC / N/A / 44 Khz / 2



DOWNLOAD:
1
http://rapidgator.net/file/d3693983...849b0f108419e/
http://rapidgator.net/file/d6d0bf33...5d49a33d88925/
2
http://filejoker.net/t2tb4s77mi4x
http://filejoker.net/tebj1t00v7up

kanibali is offline  
The Following 2 Users Say Thank You to kanibali For This Useful Post:
 
Thread Tools

Posting Rules
You may not post new threads
You may not post replies
You may not post attachments
You may not edit your posts

BB code is On
Smilies are On
[IMG] code is On
HTML code is Off

Forum Jump


All times are GMT +1. The time now is 22:30.




vBulletin Optimisation provided by vB Optimise (Pro) - vBulletin Mods & Addons Copyright © 2019 DragonByte Technologies Ltd.
(c) Free Porn

Online free porn at mobile phone


sophia rossi freejennifer toof sex tapekatie kox forumceleb forum phunfree seka videoscandice michelle nude picwww.sylviasaint.comjenni rivera videos pornoindia reynolds pussylita sex photoabella anderson spanishcharley rose pornkerri kendall vintage xxx bhabhi shopigahouston adult actressnikki sexx planetsuzydebi diamond gangbangmason moore freeonesdownload SIMG-260 sc1natasha marley for your eyes onlykobe tai forumjada jaymestracy tweed pornmilly morris vidslucy pinder pornkleo valentieneve lawrence forumkagney linn karter bossangela baron analjerk off instructions forumaletta ocean galleriesoral cremapieplaytex camfuzenaughty allie gallerieshumiliation megathread eufratsharae spears videoricky sixmarvel hentitaylor little povrobin quivers nudejustine romee gangbangstephanie swift pornoginger lynn galleriespatricia ford pfmlzaley zanerikki sixx videospalcomix vip threadchrissy moran vidstori wellescleveland steamers pornkaren lancaume picsmika tan machinerachelle wilde picturessuper mega giantessmilena velba leopardamateur express zonekarina hart clipsmaria ozawa newsreaderrosee divine bslbabysitter spanking storiessarenna lee hardcoreshyla styzenipple slips in sportsjenn sterger pornashlynn brooke retiredsabrina sabrok picturesjezebel vessirjewel de nyle planetsuzywar machine riley steelepaula garcés sexsexy nude themesexbii thong adult page 490alison sweeney fakeskayden kross siteriley steele porn actress